#TITLE:Super Idol;
#SUBTITLE:;
#ARTIST:Nicholas Teo;
#TITLETRANSLIT:Super Idol;
#SUBTITLETRANSLIT:;
#ARTISTTRANSLIT:Truong Dong Luong;
#CREDIT:;
#BANNER:Super Idol-bn.png;
#BACKGROUND:Super Idol-bg.png;
#LYRICSPATH:;
#CDTITLE:pm4cd.png;
#MUSIC:Super Idol.mp3;
#OFFSET:0.040;
#SAMPLESTART:79.749;
#SAMPLELENGTH:20.000;
#SELECTABLE:YES;
#BPMS:0.000=115.010;
#STOPS:;
#BGCHANGES:;
// cache tags:
#FIRSTBEAT:57.500;
#LASTBEAT:439.500;
#SONGFILENAME:Songs/Music V.I.P ^_^/Super Idol/Super Idol.sm;
#HASMUSIC:1;
#HASBANNER:1;
#MUSICLENGTH:233.195;
// end cache tags

//---------------dance-single - ----------------
#NOTES:
     dance-single:
     :
     Hard:
     11:
     0.810,1.000,1.000,0.360,0.392,828.000,358.000,84.000,0.000,191.000:
0000
0000
0000
0000
,
0000
0000
0000
0000
,
0000
0000
0000
0000
,
0000
0000
0000
0000
,
0000
0000
0000
0000
,
0000
0000
0000
0000
,
0000
0000
0000
0000
,
0000
0000
0000
0000
,
0000
0000
0000
0000
,
0000
0000
0000
0000
,
0000
0000
0000
0000
,
0000
0000
0000
0000
,
0000
0000
0000
0000
,
0000
0000
0000
0000
,
0000
0000
0000
1111
0010
0101
0100
1100
,
1000
0100
1001
0100
0010
0000
1010
0000
1000
0001
0110
1000
0001
0000
1010
0000
,
0010
1000
0101
0010
0100
0010
1001
0000
0001
0000
0101
0000
0100
0000
1100
0000
,
0010
0110
1000
0101
0010
1001
0010
1010
,
0100
0101
0010
1111
0010
0110
1000
0101
,
0010
0100
1001
0100
1000
0000
1100
0000
0001
0010
0101
0010
0100
0000
1001
0000
,
0100
0010
1100
0010
0001
0100
1010
0000
0010
0000
1001
0000
0010
0000
1100
0000
,
1000
0101
0010
1101
0010
0111
0100
1110
,
1000
1011
0100
0001
0010
0100
0010
0100
,
0010
0001
1000
0020
0000
0000
0000
0000
,
0000
0000
0000
0000
0000
0030
0100
0000
0010
0000
0100
0000
1000
0000
0100
0000
,
0010
0100
0010
0002
0000
0000
0000
0000
,
0000
0000
0000
0000
0000
0003
0100
0000
1000
0000
0100
0000
0001
0000
0010
0000
,
0100
0000
1000
0000
0001
0000
0200
0000
0000
0000
0000
0000
0000
0000
0000
0300
,
0010
0010
0100
1000
0100
0010
0001
0100
,
0010
0000
1000
0000
0100
0000
0001
0010
0000
0000
1000
0000
0001
0000
0010
0100
,
0010
0100
1000
1000
0100
0010
0101
0000
0000
0000
0110
0000
0000
0000
0101
0000
,
0000
1010
0000
0011
0000
1100
0000
0110
,
0010
0011
0100
1001
0000
1010
0000
1100
,
0000
1001
0000
0101
0000
0011
0000
1001
,
0100
0110
0001
1100
0000
1001
0000
0110
,
0000
1100
0000
0011
0000
0101
0000
1001
,
0001
1010
0100
0110
0000
0011
0000
0110
,
0000
1001
0000
2200
0000
0000
0001
3311
,
0100
0010
0100
0000
1000
0100
1111
0000
0001
0000
0101
0000
0100
0001
0110
0000
,
1000
0000
2001
0000
0010
0000
0110
0001
0010
0100
3011
0100
0010
0001
0110
0001
,
0010
0000
0101
0000
0010
0100
1011
0000
0100
0000
0011
0000
1000
0100
1001
0000
,
0010
0000
0210
0000
1000
0000
0011
1000
0010
0000
1301
0000
0010
0000
1100
0010
,
0001
0001
0110
0000
0001
1000
1111
0000
0010
0000
0110
0000
1000
0100
0101
0000
,
0010
0000
1002
0000
0010
0000
0110
1000
0100
0010
1103
0010
0001
0010
0101
0010
,
0100
0000
0011
0000
0010
0001
1111
0000
0010
0000
1100
0000
0001
0010
1010
0000
,
0100
0000
2001
0000
0001
0000
0110
0100
0010
0000
3101
0000
0010
0100
1001
0100
,
1010
0000
0101
0000
0100
0010
0002
0000
0000
0000
0020
0000
0000
0000
2103
0000
,
0000
0000
0230
0000
0000
0000
3012
0000
0000
0000
2300
0000
0010
0100
0023
0000
,
0000
3101
1000
1031
0000
0021
0000
2001
,
0000
0230
0000
3012
0000
0320
1000
1103
,
0100
0230
0000
2300
0000
3102
0000
1200
,
0000
0023
0000
2301
0000
0032
0010
3100
,
1000
0000
0103
0000
1000
0100
2000
0000
0000
0000
3201
0000
0000
0000
2010
0000
,
0000
0302
0000
3120
0000
2003
0000
0130
,
0000
3000
0000
0011
0000
0110
0000
1001
,
0000
1100
0000
0110
0000
1001
0000
0101
,
0010
0110
0100
1010
0000
1100
0000
1001
,
0000
0110
0000
1100
0000
0101
0000
0011
,
0001
1010
0100
1001
0000
1010
0000
0110
,
0000
0101
0000
0011
0000
1100
0000
0110
,
0010
1100
0010
1001
0000
0101
0000
0011
,
0000
0101
0000
2020
0000
0000
0000
0100
,
0100
0000
3131
0000
0010
0100
1111
0000
0010
0000
1100
0000
0001
0010
1100
0000
,
0010
0000
1020
0000
0000
0000
0001
0100
1000
0100
1031
0100
0010
0001
1010
0001
,
0010
0000
0110
0000
0001
0010
1101
0000
0010
0000
0101
0000
0010
0100
1010
0000
,
0001
0000
0102
0000
1000
0000
0110
1000
0100
0000
1013
0000
0010
0000
1010
0100
,
1000
1000
0101
0000
0001
0001
1111
0000
0010
0000
1010
0000
0010
0100
1100
0000
,
0010
0000
2001
0000
0010
0000
0110
0001
0010
0100
3101
0010
0100
1000
0110
0001
,
0010
0000
0011
0000
0100
0001
1111
0000
0010
0000
1100
0000
0100
0001
0101
0000
,
0010
0000
1200
0000
1000
0000
0011
1000
0001
0000
1301
0000
0010
0100
1001
0100
,
0010
0000
0101
0000
0001
0010
1200
0000
0000
0000
1001
0000
1000
0001
1010
0001
,
1000
0001
1010
0001
0010
0001
1310
0000
0100
0000
0011
0000
0100
0010
1001
0100
,
0010
0100
1001
0010
0100
0010
1101
0000
0000
1011
0000
0000
0100
1000
0101
1000
,
0100
1000
0101
1000
0100
1000
0111
0000
0000
0000
0101
0000
1001
0010
0110
0100
,
1100
0010
1001
0100
0101
0010
2101
0000
0010
0000
0110
0000
0001
0100
0011
0100
,
0010
0100
0011
0100
0010
3100
0012
0000
0010
0000
1100
0000
0010
0100
1010
0100
,
1000
0100
1010
0100
1000
0103
1020
0000
0100
0000
0101
0000
1000
0100
1001
0100
,
0001
0100
1001
0100
0001
0130
1002
0000
0010
0000
0110
0000
0100
1000
0110
1000
,
0010
1000
0110
1000
0010
1003
1111
0000
0001
0000
0110
0000
0001
0000
1010
0000
,
0001
0010
1100
0010
0100
0000
0011
0000
1000
0100
1010
0100
1000
0000
0011
0000
,
0001
0010
0101
1000
0100
0010
1001
0000
0010
0000
1100
0000
0001
0000
0011
0000
,
1000
1010
0100
1001
0001
1100
0010
0110
,
0001
0000
1010
0000
1000
1000
2111
0000
0000
0000
0101
0000
0011
0100
0101
0000
,
0011
3000
0002
0000
0000
0000
0110
0100
1010
1000
1100
0010
1100
0103
0101
0010
,
1101
0000
0000
0000
1010
0100
1111
0000
0001
0000
0100
0000
0101
0010
1100
0000
,
0010
0000
0020
0000
0000
0000
1100
0001
0100
0000
1031
0000
0000
0000
0110
0000
,
0001
0000
0100
0000
0011
0100
1111
0000
1000
0000
1001
0000
0001
0001
0011
0000
,
0010
0000
1002
0000
0000
0000
0100
1000
0100
0010
1103
0010
0100
1000
1001
0000
,
0010
0000
0110
0000
0010
0010
0111
0000
1000
0000
0110
0000
0001
0100
1010
0000
,
0010
0000
2001
0000
0010
0000
0011
0100
0010
0000
3101
0000
1000
0010
0101
0010
,
1000
0000
1100
0000
1000
0100
1111
0000
0001
0000
1020
0000
0100
0000
2100
0000
,
0001
0132
0010
3210
1000
2013
0001
0321
,
0100
3101
1000
2130
0001
0102
0010
3210
,
0010
1023
0001
2301
0100
0132
0010
3210
,
1000
1023
0001
2301
0100
0132
0010
3210
,
1000
1013
0001
1302
0010
0120
1000
1203
,
0001
2031
0010
0321
0100
3201
1000
1032
,
0010
2310
0100
0213
0010
3012
1000
1320
,
0100
0000
1103
0000
0001
0000
1131
0000
0010
0000
1100
0000
0100
0010
0011
0000
,
0110
0010
1001
0100
1010
0000
0101
0000
0110
0001
1010
0100
0101
0000
0011
0000
,
1001
0100
1100
0010
0101
0100
1011
0000
1001
0000
0110
0000
1100
0010
0101
0000
,
0011
0000
1010
0000
1100
0000
1001
0010
0101
0000
0110
0000
1010
0100
1001
0010
,
1100
0000
0011
0000
1100
0010
1111
0000
0101
0000
1010
0000
1001
0001
0110
0000
,
1100
0010
0011
1000
0110
0000
0011
0000
0101
0100
1001
0010
1100
0000
0110
0000
,
1001
0010
1010
0100
0011
0001
1111
0000
1100
0000
1001
0000
0101
0100
0110
0000
,
1100
0000
1001
0000
0101
0000
0110
0001
1010
0000
1001
0000
0011
0010
1101
1000
,
0110
0000
0111
0000
1000
0100
0011
0000
0000
1110
0000
0000
1011
0000
0000
0111
,
0000
1101
0000
0000
1011
0000
1220
0000
0000
0000
0000
2002
0000
0000
0330
0000
,
0000
0000
0000
0220
0000
0000
3003
0000
0000
0001
1000
0001
1000
0001
1000
0001
,
1000
0001
1000
0001
1000
0001
1000
0001
1000
0001
1000
0001
1001
0000
0330
0000
;
